Customizar Layout


Última Hora: "Isabel dos Santos paga advogados com diamantes de Angola - Expresso" Thu, 08 Dec 2022 22:00:00 GMT    "Um líder surgiu na cidade submersa - Diário de Notícias" Fri, 09 Dec 2022 00:02:00 GMT    "Lisboa em alerta. Noite de caos na região da capital devido à chuva forte - RTP" Thu, 08 Dec 2022 08:02:04 GMT    "Com vagar se foi longe, e Évora subiu a Capital Europeia da Cultura - Público" Wed, 07 Dec 2022 22:21:01 GMT    "Iniciativa Liberal: Lista de Carla Castro à direção inclui ex-governante e ambiciona ?maiores voos políticos? - Expresso" Thu, 08 Dec 2022 16:09:00 GMT   "Lisboa, Leiria, Setúbal, Santarém e Faro com aviso laranja - SAPO 24" Thu, 08 Dec 2022 16:54:00 GMT    "Ricardo Penarroias. "A greve dos tripulantes não é algo que vamos fazer de ânimo leve" - SOL" Wed, 07 Dec 2022 17:41:00 GMT    "Putin admite uso de armas nucleares como "resposta" a eventual ataque - Euronews" Thu, 08 Dec 2022 06:48:38 GMT    "Chuva forte vai continuar até sexta-feira. Em causa está uma depressão entre os Açores e Portugal Continental - SAPO 24" Thu, 08 Dec 2022 18:00:00 GMT    "Arquipélago da Madeira sob aviso amarelo para chuva, vento e agitação marítima - Diário de Notícias Madeira" Thu, 08 Dec 2022 19:44:13 GMT      Para mais notícias, clique aqui.

Bem vindos à Mula da Cooperativa!
Comunidade Mula da Cooperativa, viva desde 2003. Portal generalista mas com fórum para dúvidas sobre sacanços. Inscrevam-se e comecem a participar! Nota: Este fórum já não se destina à partilha de links em si, apenas ajuda e troca de ideias sobre este tema. Registar. A inscrição é confirmada por email, por isso coloquem um email real ou poderão não conseguir postar depois!



Cinema e TV Tudo o que diga respeito a filmes de Cinema, Séries de TV, Novelas, o que quer que diga respeito ou esteja relacionado com a 7ª Arte...

Responder
 
Opções Display
  #1  
Velho 28-09-2010, 19:41
asimao asimao encontra-se desligado
Novo Utilizador
 
About:
Data de Adesão: Sep 2008
Mensagens: 2
Talking Filme Homem de Ferro 2 (Iron Man 2) DvdRip XviD Dual Audio









Sinopse:
“ No filme 'HOMEM DE FERRO 2' o mundo já sabe que o inventor bilionário Tony Stark (Robert Downey Jr.) é o super-herói blindado Homem de Ferro. Sofrendo pressão do governo, da mídia e do público para compartilhar sua tecnologia com as forças armadas, Tony reluta em divulgar os segredos por trás da armadura do Homem de Ferro, temendo que as informações caiam em mãos erradas. Tendo Pepper Potts (Gwyneth Paltrow) e James "Rhodey" Rhodes (Don Cheadle) a seu lado, Tony estabelece novas alianças e enfrenta novas e poderosas forças.”

Info: Imagem

Site Oficial: Iron Man Movie

Elenco:
Robert Downey Jr ... Tony Stark
Don Cheadle ... Lt. Col. James 'Rhodey' Rhodes / War Machine
Scarlett Johansson ... Natalie Rushman / Natasha Romanoff
Gwyneth Paltrow ... Pepper Potts
Sam Rockwell ... Justin Hammer
Mickey Rourke ... Ivan Vanko
Samuel L. Jackson ... Nick Fury
Clark Gregg ... Agent Coulson
John Slattery ... Howard Stark
Jon Favreau ... Happy Hogan

Direção:
Jon Favreau

Gênero:
Ação | Aventura | Ficção Científica

Duração:

124 min.

Audio=
Citar:
General
Complete name : Iron.Man.2.BRRip.720p.Dual.AC3-TFREAKS.[fenixbrazil].avi
Format : AVI
Format/Info : Audio Video Interleave
Format profile : OpenDML
File size : 3.56 GiB
Duration : 2h 4mn
Overall bit rate : 4 086 Kbps
Writing application : AVI-Mux GUI 1.17.8.3, Feb 16 201019:42:50
Video #0
ID : 0
Format : MPEG-4 Visual
Format profile : AdvancedSimple@L5
Format settings, BVOP : Yes
Format settings, QPel : No
Format settings, GMC : No warppoints
Format settings, Matrix : Default (H.263)
Muxing mode : Packed bitstream
Codec ID : XVID
Codec ID/Hint : XviD
Duration : 2h 4mn
Bit rate : 3 183 Kbps
Width : 1 280 pixels
Height : 544 pixels
Display aspect ratio : 2.35:1
Frame rate : 23.976 fps
Resolution : 24 bits
Colorimetry : 4:2:0
Scan type : Progressive
Bits/(Pixel*Frame) : 0.191
Stream size : 2.77 GiB (78%)
Writing library : XviD 1.2.1 (UTC 2008-12-04)
Audio #1
ID : 1
Format : AC-3
Format/Info : Audio Coding 3
Codec ID : 2000
Duration : 2h 4mn
Bit rate mode : Constant
Bit rate : 448 Kbps
Channel(s) : 6 channels
Channel positions : Front: L C R, Surround: L R, LFE
Sampling rate : 48.0 KHz
Stream size : 399 MiB (11%)
Alignment : Aligned on interleaves
Interleave, duration : 64 ms (1.53 video frames)
Interleave, preload duration : 192 ms
Title : 2_7_audio
Audio #2
ID : 2
Format : AC-3
Format/Info : Audio Coding 3
Codec ID : 2000
Duration : 2h 4mn
Bit rate mode : Constant
Bit rate : 448 Kbps
Channel(s) : 6 channels
Channel positions : Front: L C R, Surround: L R, LFE
Sampling rate : 48.0 KHz
Stream size : 399 MiB (11%)
Alignment : Aligned on interleaves
Interleave, duration : 64 ms (1.53 video frames)
Interleave, preload duration : 192 ms
Title : 1_2_audio
screens:





link para o emule [URL="ed2k://|file|Iron.Man.2.BRRip.720p.Dual.AC3-TFREAKS.[fenixbrazil].avi|3820450430|42886383458C7686D4B8FF016034F610|h =QLYGGBYTRCMH443WS5U2POCDX4RBSQAX|/"]ed2k://|file|Iron.Man.2.BRRip.720p.Dual.AC3-TFREAKS.[fenixbrazil].avi|3820450430|42886383458C7686D4B8FF016034F610|h =QLYGGBYTRCMH443WS5U2POCDX4RBSQAX|/[/URL]

Última edição de asimao : 29-09-2010 às 18:33.
Responder com Quote
Responder

« Anterior | Seguinte »


Opções
Display

Regras de Criação de Mensagens
não pode criar novos tópicos
não pode enviar respostas às mensagens
não pode adicionar ficheiros em anexo
não pode editar as suas mensagens
O Código vB está On
Smiles estão On
Código da [IMG] é On
Código HTML é Desligado
Ir Para o Fórum:

Similar Threads
Tópico Início de Novo Tópico Fórum Respostas Última Mensagem
O HOMEM SÓ TRAI POR JUSTA CAUSA mariogomes Humor e Anedotas 1 16-08-2012 18:30
Homem de Ferro (Dublado.PTBR).DVDRip.XviD asimao Cinema e TV 0 14-09-2008 21:23
A dura realidade do homem!!!!!!!! mariogomes Humor e Anedotas 0 04-06-2008 06:18
o homem para o penis _|Jp|_ Humor e Anedotas 0 08-10-2007 21:44


Todas horas estão no fuso horário GMT. A hora actual é 09:18.



© Mula da Cooperativa 2022